Skip to main content

Zony Mash Live at Knitting Factory on 1997-11-07

Audio Preview

etree
Zony Mash Live at Knitting Factory on 1997-11-07




Zony Mash
November 7, 1997 - early and late shows
Knitting Factory
NYC NY

Wayne Horvitz - keys
Tim Young - guitar
Fred Chalenor - bass
Andy Roth - drums

*** THIS IS A 16-BIT FILESET INTENDED FOR AUDIO CD ***

EARLY SHOW
DISK ONE
01 intro / tuning
02
03 Sex Fiend
04
05
06 *
07 *
08 *
09 *
10 *

LATE SHOW
DISK TWO
01 intro
02
03
04
05
06
07 &
08 &
09 &
10 &

DISK THREE
01 intro &^
02 &^
03 *&^
04 pre-encore
05 *

* w/ Briggan Krauss - saxophone
& w/ John Zorn - saxophone
^ w/ Marc Ribot - guitar


Collection WayneHorvitz
Band/Artist Wayne Horvitz
Venue Knitting Factory
Location NYC NY

Source csb > battery box > sbm1 > tcd-d8 (16/48)
Lineage zefiro acoustics za-2 (dos) > soundforge 4.5 (tracking, fades, resample) > cdr-win > EAC 0.95pb5 (log included) > flac 1.20a
Taped by peter w. king
Transferred by peter w. king

Notes

length expanded size cdr WAVE problems fmt ratio filename
1:37.50 17228444 B --- -- ---xx flac 0.3559 zonymash1997-11-07a_d1t01.flac
6:06.41 64658876 B --- -- ---xx flac 0.5747 zonymash1997-11-07a_d1t02.flac
6:24.46 67845836 B --- -- ---xx flac 0.6405 zonymash1997-11-07a_d1t03.flac
11:34.59 122560412 B --- -- ---xx flac 0.5164 zonymash1997-11-07a_d1t04.flac
4:33.50 48274844 B --- -- ---xx flac 0.6376 zonymash1997-11-07a_d1t05.flac
9:23.33 99390860 B --- -- ---xx flac 0.5615 zonymash1997-11-07a_d1t06.flac
4:24.37 46656668 B --- -- ---xx flac 0.6266 zonymash1997-11-07a_d1t07.flac
12:45.49 135061292 B --- -- ---xx flac 0.4424 zonymash1997-11-07a_d1t08.flac
4:06.03 43401500 B --- -- ---xx flac 0.5564 zonymash1997-11-07a_d1t09.flac
9:40.67 102469628 B --- -- ---xx flac 0.5429 zonymash1997-11-07a_d1t10.flac
0:51.51 9116396 B --- -- ---xx flac 0.2256 zonymash1997-11-07b_d2t01.flac
13:22.15 141508124 B --- -- ---xx flac 0.4796 zonymash1997-11-07b_d2t02.flac
2:23.38 25314620 B --- -- ---xx flac 0.5606 zonymash1997-11-07b_d2t03.flac
4:41.32 49643708 B --- -- ---xx flac 0.4964 zonymash1997-11-07b_d2t04.flac
4:22.11 46242716 B --- -- ---xx flac 0.5448 zonymash1997-11-07b_d2t05.flac
12:04.24 127770092 B --- -- ---xx flac 0.4023 zonymash1997-11-07b_d2t06.flac
5:17.60 56059964 B --- -- ---xx flac 0.5865 zonymash1997-11-07b_d2t07.flac
11:30.28 121781900 B --- -- ---xx flac 0.4601 zonymash1997-11-07b_d2t08.flac
10:19.03 109198700 B --- -- ---xx flac 0.5623 zonymash1997-11-07b_d2t09.flac
2:21.07 24888908 B --- -- ---xx flac 0.6496 zonymash1997-11-07b_d2t10.flac
1:20.49 14227292 B --- -- ---xx flac 0.3060 zonymash1997-11-07b_d3t01.flac
5:36.55 59399804 B --- -- ---xx flac 0.5659 zonymash1997-11-07b_d3t02.flac
11:09.18 118053980 B --- -- ---xx flac 0.5435 zonymash1997-11-07b_d3t03.flac
7:55.19 83834732 B --- -- ---xx flac 0.3422 zonymash1997-11-07b_d3t04.flac
12:56.46 136994636 B --- -- ---xx flac 0.5639 zonymash1997-11-07b_d3t05.flac
176:49.66 1871583932 B 0.5158 (25 files)

comment
Reviews

Reviewer: david gunnells - favoritefavoritefavoritefavoritefavorite - September 15, 2008
Subject: Thanks for sharing, great sound!
First, many thanks for uploading this! I've had a cassette tape of this show for many years. :)) Glad to see it available digitally!

Oh, and here's the setlist:

early show: happens like that, sex fiend, snakebite, let's get mashed, prudence rsvp, *the gift, *improv (horvitz/krauss) > *daylight, *mel, *stompin at the cranium

late show: smiles, withdrawal symptoms, cold spell, meet the zony mash, cadillac ranch, +triggerfingers, +slide by, +#i love atlanta, +#party girl, *+#with the space on top, *+#bad traffic

encore: +improv (horvitz/zorn), +brand spankin' new

note: *with Briggan Krauss (alto sax), +John Zorn (alto sax) & #Marc Ribot (guitar)
DOWNLOAD OPTIONS
In Collection
Wayne Horvitz
In Collection
Live Music Archive
Uploaded by
peterwking
on 8/25/2007
Views
4,089
Favorites
6
Reviews
1
SIMILAR ITEMS (based on metadata)
eye
Title
Date Archived
Creator
Wayne Horvitz
by Wayne Horvitz
etree
eye 1,667
favorite 2
comment 1
favoritefavoritefavoritefavoritefavorite ( 1 reviews )
Source: dsbd > sbm1 > tcd-d8 (16/48)
Wayne Horvitz
by Wayne Horvitz
etree
eye 612
favorite 0
comment 0
Source: SBD > DAT
Wayne Horvitz
by Wayne Horvitz
etree
eye 77
favorite 0
comment 0
Source: schoeps cmc5-mk4 (cardioid, 2nd row center) > sonosax SX-M2 > Sony D3
Wayne Horvitz
by Wayne Horvitz
etree
eye 145
favorite 2
comment 0
Source: Tascam US-1800 Multitrack > Reaper
Wayne Horvitz
by Wayne Horvitz
etree
eye 435
favorite 2
comment 3
favoritefavoritefavoritefavoritefavorite ( 3 reviews )
Source: Avantone CK-1 (busman mod) omni capsules onstage pair, 6 foot split > Denecke PS-2 > Sony PCM-M10
Wayne Horvitz
by Wayne Horvitz
etree
eye 397
favorite 2
comment 0
Source: MG M300s (FOB > SD 744T (24/44.1)
Wayne Horvitz
by Wayne Horvitz
etree
eye 36
favorite 0
comment 0
Source: AKG 414TLII (split on-stage, set on omni) + SBD > Mackie 1402 > Lunatec V3
Wayne Horvitz
by Wayne Horvitz
etree
eye 84
favorite 0
comment 0
Source: SBD > M1
Wayne Horvitz
by Wayne Horvitz
etree
eye 31
favorite 0
comment 0
Source: Sennheiser MKE-2 > Sony M1 (foot of stage)
Wayne Horvitz
by Wayne Horvitz
etree
eye 27
favorite 0
comment 0
Source: FM > Fostex D5